当前位置:网站首页 > 影音资源 > 动画 > 正文

[动画] 蜘蛛侠:平行宇宙 2018.1080p.AMZN.WEBRip.DDP5.1.x264-SiGMA 7.5GB

作者:蓝扬 日期:2019-03-03 分类:动画

◎译  名 蜘蛛侠:平行宇宙 / Spider-Man: a New Universe / 蜘蛛人:新宇宙(台) / 蜘蛛侠:平行世界 / 蜘蛛侠:新纪元 / 蜘蛛侠:跳入蜘蛛宇宙(港)

◎片  名 Spider-Man: Into the Spider-Verse

◎年  代 2018

◎产  地 美国

◎类  别 动作 / 科幻 / 动画 / 冒险

◎语  言 英语 / 西班牙语

◎上映日期 2018-12-14(美国) / 2018-12-21(中国大陆)

◎IMDb评分 8.7/10 from 96568 users

◎IMDb链接 http://www.imdb.com/title/tt4633694

◎豆瓣评分 8.7/10 from 207368 users

◎豆瓣链接 https://movie.douban.com/subject/26374197/

◎片  长 116分钟(中国大陆)

◎导  演 鲍勃·佩尔西凯蒂 Bob Persichetti / 彼得·拉姆齐 Peter Ramsey / 罗德尼·罗斯曼 Rodney Rothman

◎编  剧 菲尔·罗德 Phil Lord / 罗德尼·罗斯曼 Rodney Rothman / 布莱恩·本迪斯 Brian Bendis / 萨拉·皮凯利 Sara Pichelli / 史蒂夫·迪特寇 Steve Ditko / 斯坦·李 Stan Lee / David Hine / Fabrice Sapolsky

◎主  演 沙梅克·摩尔 Shameik Moore

      杰克·约翰逊 Jake M. Johnson

      海莉·斯坦菲尔德 Hailee Steinfeld

      马赫沙拉·阿里 Mahershala Ali

      布莱恩·泰里·亨利 Brian Tyree Henry

      莉莉·汤姆林 Lily Tomlin

      劳伦·维勒斯 Lauren Vélez

      佐伊·克罗维兹 Zoë Kravitz

      约翰·木兰尼 John Mulaney

      金可·格伦 Kimiko Glenn

      尼古拉斯·凯奇 Nicolas Cage

      凯瑟琳·哈恩 Kathryn Hahn

      列维·施瑞博尔 Liev Schreiber

      克里斯·派恩 Chris Pine

      娜塔丽·莫瑞丝 Natalie Morales

      奥斯卡·伊萨克 Oscar Isaac

      格里塔·李 Greta Lee

      斯坦·李 Stan Lee

      乔玛·塔科内 Jorma Taccone

      华金·科西奥 Joaquín Cosio

      蕾克·贝尔 Lake Bell

      梅勒妮·海恩斯 Melanie Haynes

      尼克·杰恩 Nick Jaine

      穆尼卜·拉赫曼 Muneeb Rehman

      Carlos Zaragoza

      黛西·罗斯·布莱内斯 Darcy Rose Byrnes

      里夫·霍顿 Rif Hutton

      哈里森·奈特 Harrison Knight

      莱克斯·朗 Lex Lang

      凯特琳·麦肯纳-威尔金森 Caitlin McKenna-Wilkinson

      斯科特·门维尔 Scott Menville

      克里斯托弗·米勒 Christopher Miller

      德维卡·帕利赫 Devika Parikh

      柯特妮·佩尔顿 Courtney Peldon

      克里斯蒂·法瑞斯 Chrystee Pharris

      杰奎琳·皮诺尔 Jacqueline Pinol

      贾斯汀·沉卡罗 Justin Shenkarow

      梅利莎·斯特姆 Melissa Sturm


◎简  介


  迈尔斯(沙梅克·摩尔 配音)的父亲是一位一板一眼的警官,而他的母亲则是一名工作勤奋的护士。慈爱的父母对于孩子的成就非常自豪,也希望他能够融入新加入的这所优秀的学校,在这里取得成功。然而迈尔斯的生活因为一次意外变得更加复杂。他被一只放射性蜘蛛咬伤,并因此获得了毒液冲击、伪装隐藏、蜘蛛爬行、超凡听力、蜘蛛感应等一系列超能力。与此同时,这座城市里最臭名昭着的犯罪头目金并(列维·施瑞博尔 配音)已经建立起一台高度隐秘的超级对撞机,这台对撞机开启了通往其他宇宙的时空通道,来自其他宇宙、不同版本的蜘蛛侠(包括中年彼得·帕克、女蜘蛛侠格温、暗影蜘蛛侠、蜘猪侠和潘妮·帕克)也来到了迈尔斯所在的世界。在这些新老角色的帮助下,迈尔斯慢慢学习、逐渐接受挑战,也学会了作为一名超级英雄所要承担的责任。他最终意识到,任何人都可以戴上超级英雄的面具,为正义而战……


◎获奖情况


  第91届奥斯卡金像奖(2019)

  最佳动画长片(提名) 鲍勃·佩尔西凯蒂 / 菲尔·罗德 / 罗德尼·罗斯曼 / 克里斯托弗·米勒 / 彼得·拉姆齐


  第76届金球奖(2019)

  电影类 最佳动画长片


  第72届英国电影学院奖(2019)

  电影奖 最佳动画片


  第46届动画安妮奖(2019)

  最佳动画长片

  最佳导演 鲍勃·佩尔西凯蒂 / 罗德尼·罗斯曼 / 彼得·拉姆齐

  最佳编剧 菲尔·罗德 / 罗德尼·罗斯曼

  最佳剪辑

  最佳艺术指导

  最佳动画角色

  最佳角色设计


  第30届美国制片人工会奖(2019)

  最佳动画片制片人奖


  第69届美国剪辑工会奖(2019)

  动画片最佳剪辑 Robert Fisher Jr.


  第23届美国艺术指导工会奖(2019)

  电影奖 最佳动画电影艺术指导(提名) Justin Thompson


  第66届美国音效剪辑协会奖(2019)

  金卷轴奖 最佳动画片音效剪辑

  金卷轴奖 最佳配乐剪辑


  第17届美国视觉效果协会奖(2019)

  最佳动画电影视觉效果

  最佳动画电影CG动画角色

  最佳动画电影CG背景

  最佳动画电影模拟动画效果


  第55届美国声音效果协会奖(2019)

  动画电影最佳音效(提名)


  第84届纽约影评人协会奖(2018)

  最佳动画片


  第24届美国评论家选择电影奖(2019)

  最佳动画片


  第53届美国国家影评人协会奖(2019)

  最佳男配角(提名) 布莱恩·泰里·亨利


  第17届华盛顿影评人协会奖(2018)

  最佳动画片(提名)

  最佳配音(提名) 沙梅克·摩尔


  第44届洛杉矶影评人协会奖(2018)

  最佳动画片


  第31届芝加哥影评人协会奖(2018)

  最佳动画片


  第17届旧金山影评人协会奖(2018)

  最佳动画片


  第52届堪萨斯影评人协会奖(2018)

  最佳动画片


  第12届底特律影评人协会奖(2018)

  最佳动画片


  第22届美国在线影评人协会奖(2019)

  最佳动画片


Video
ID : 1
Format : AVC
Format/Info : Advanced Video Codec
Format profile : [email protected]
Format settings : CABAC / 4 Ref Frames
Format settings, CABAC : Yes
Format settings, ReFrames : 4 frames
Codec ID : V_MPEG4/ISO/AVC
Duration : 2 h 12 min
Bit rate : 7 534 kb/s
Width : 1 920 pixels
Height : 1 080 pixels
Display aspect ratio : 16:9
Frame rate mode : Constant
Frame rate : 23.976 (24000/1001) FPS
Color space : YUV
Chroma subsampling : 4:2:0
Bit depth : 8 bits
Scan type : Progressive
Bits/(Pixel*Frame) : 0.152
Stream size : 6.98 GiB (92%)
Default : Yes
Forced : No
Color range : Limited
Color primaries : BT.709
Transfer characteristics : BT.709
Matrix coefficients : BT.709

Audio
ID : 2
Format : E-AC-3
Format/Info : Enhanced AC-3
Commercial name : Dolby Digital Plus
Codec ID : A_EAC3
Duration : 2 h 12 min
Bit rate mode : Constant
Bit rate : 640 kb/s
Channel(s) : 6 channels
Channel layout : L R C LFE Ls Rs
Sampling rate : 48.0 kHz
Frame rate : 31.250 FPS (1536 SPF)
Compression mode : Lossy
Stream size : 607 MiB (8%)
Language : English
Service kind : Complete Main
Default : Yes
Forced : No

Text
ID : 3
Format : UTF-8
Codec ID : S_TEXT/UTF8
Codec ID/Info : UTF-8 Plain Text
Duration : 1 h 56 min
Bit rate : 75 b/s
Count of elements : 2271
Stream size : 64.2 KiB (0%)
Title : English (SDH)
Language : English
Default : No
Forced : No



下载地址:

飞猫云:https://www.feemoo.com/file-2934557.html

一木禾:http://www.yimuhe.com/file-4365379.html

yunfile:http://putpan.com/fs/0labnyfan7g38641/

无广告/干净云/直链/BT下载:

隐藏内容 (VIP会员专属)
登录后刷新页面即可见下载地址

郑重声明:

本站所有内容均由互联网收集整理、网友上传,并且以计算机技术研究交流为目的,仅供大家参考、学习,不存在任何商业目的与商业用途。

若您需要商业运营或用于其他商业活动,请您购买正版授权并合法使用。 我们不承担任何技术及版权问题,且不对任何资源负法律责任。

如资源失效请留言联系站长,压缩文件请用好压或者360压缩软件解压,请勿在线解压。


欢迎 发表评论:

请填写验证码
享受更多资源下载可加入本站VIP会员!登录注册×
»
会员登录
新用户注册
×
会员注册
已有账号登录
×
请先 登录 再评论,若不是会员请先 注册